VectorLinux
November 25, 2014, 04:03:15 pm *
Welcome, Guest. Please login or register.
Did you miss your activation email?

Login with username, password and session length
News: Visit our home page for VL info. To search the old message board go to http://vectorlinux.com/forum1. The first VL forum is temporarily offline until we can find a host for it. Thanks for your patience.
 
Now powered by KnowledgeDex.
   Home   Help Search Login Register  
Please support VectorLinux!
Pages: [1]
  Print  
Author Topic: 20121010 dvdstyler-2.3 [VL7.0]  (Read 1434 times)
stretchedthin
Administrator
Vectorian
*****
Posts: 3780


WWW
« on: October 10, 2012, 12:09:41 am »

stretchedthin has built a new Dvdstyler package for VectorLinux 32bit and 64bit repositories 7.0.
   
      
   
Code:
dvdstyler: DVDStyler (dvd authoring gui)
dvdstyler:
dvdstyler: DVDStyler is a cross-platform free DVD authoring application that
dvdstyler: makes possible for video enthusiasts to create professional-looking
dvdstyler: DVDs.
dvdstyler: It allows not only burning of video files on DVD that can be played
dvdstyler: practically on any standalone DVD player, but also creation of
dvdstyler: individually designed DVD menus.
dvdstyler:
dvdstyler: homepage: http://www.dvdstyler.org/
dvdstyler:
   
   After testing this package please stop back here and let us know how it works for you.
   
Logged

Vectorlinux screencasts and  tutorials can be found at....
http://www.opensourcebistro.com/blog1
http://www.youtube.com/user/vid4ken?feature=mhee
MarkGrieveson
Vectorian
****
Posts: 531


« Reply #1 on: February 13, 2013, 10:56:47 am »

This is no longer working for me.  It opens, and appears fine, but when I try to run it (IE, create a dvd or an iso) it crashes.  Perhaps something is wrong with libwx_gtk2u_media no longer being in the wxgtk or wxwidgets package.
« Last Edit: February 13, 2013, 11:01:17 am by MarkGrieveson » Logged

I am using VL7.0 standard with XFCE
stretchedthin
Administrator
Vectorian
*****
Posts: 3780


WWW
« Reply #2 on: February 13, 2013, 02:29:11 pm »

Can you post the output when ran from terminal.
Also, the deps on dvdstyler are as follows... ffmpeg wxWidgets wxsvg dvdauthor
Have you made any changes to those, that could be relevant?
Logged

Vectorlinux screencasts and  tutorials can be found at....
http://www.opensourcebistro.com/blog1
http://www.youtube.com/user/vid4ken?feature=mhee
MarkGrieveson
Vectorian
****
Posts: 531


« Reply #3 on: February 15, 2013, 08:28:54 am »

Code:
vector:/~
mark:$ dvdstyler
[mpeg @ 0x87d9b00] max_analyze_duration 5000000 reached at 5005000
[mpeg @ 0x8680120] max_analyze_duration 5000000 reached at 5005000
Output #0, dvd, to '/tmp/dvd-tmp/menu1-0.mpg_bg.mpg':
    Stream #0:0: Video: mpeg2video, yuv420p, 720x480 [SAR 8:9 DAR 4:3], q=2-31, 6000 kb/s, 90k tbn, 29.97 tbc
    Stream #0:1: Audio: ac3, 48000 Hz, 2 channels, flt, 64 kb/s
[ac3 @ 0x88d13e0] channel_layout not specified
[ac3 @ 0x88d13e0] No channel layout specified. The encoder will guess the layout, but it might be incorrect.
[swscaler @ 0x892dc20] Warning: data is not aligned! This can lead to a speedloss
Segmentation fault
vector:/~
mark:$

This was done with an flv file downloaded from youtube which had been converted to an mpeg file via ffmpeg.  As for alternate causes, potentially something was incorrect in the conversion.  The mpg file works perfectly in umplayer, but only the video works in xine, but not the audio.  Also, I recently altered wxsvg (see link).

« Last Edit: February 15, 2013, 08:33:25 am by MarkGrieveson » Logged

I am using VL7.0 standard with XFCE
overthere
Vectorian
****
Posts: 1281



« Reply #4 on: February 15, 2013, 08:01:00 pm »

Installed from gslapt dvdstyler 2.3 to VL7light
yesterday converted an avi with ffmpeg to mpg and used dvd author to create dvd then burned with k3b. played fine on mplayer and the standard dvd player

when I open dvdstyler and drag the same mpg to the title at the bottom and click burn I get the following error
Code:
DVDStyler v2.3
Linux 3.0.17 i686
FFmpeg: libavformat 53.31.100, libavcodec 53.60.100, libavutil 51.34.101
Prepare
Cleaning temporary directory
Search for transcoded files in cache
Generating menus
Generating menu 1 of 1
Create menu MPEG
Multiplexing subpictures into mpeg
Menu has 2 group(s) of changeable colours.
Executing command: spumux -P -s 0 "/tmp/dvd-tmp/menu1-0.mpg_spumux.xml"
spumux: error while loading shared libraries: libMagickCore.so.3: cannot open shared object file: No such file or directory
Failed

In terminal
Code:
overthere:$ dvdstyler
[mpeg @ 0x84a86c0] max_analyze_duration 5000000 reached at 5005000
[mpeg @ 0x848b620] max_analyze_duration 5000000 reached at 5005000
[mpeg @ 0x85292a0] max_analyze_duration 5000000 reached at 5005000
[mpeg @ 0x84a86c0] max_analyze_duration 5000000 reached at 5005000
Output #0, dvd, to '/tmp/dvd-tmp/menu1-0.mpg_bg.mpg':
    Stream #0:0: Video: mpeg2video, yuv420p, 720x480 [SAR 8:9 DAR 4:3], q=2-31, 6000 kb/s, 90k tbn, 29.97 tbc
    Stream #0:1: Audio: ac3, 48000 Hz, 2 channels, flt, 64 kb/s
[ac3 @ 0x83a0ca0] channel_layout not specified
[ac3 @ 0x83a0ca0] No channel layout specified. The encoder will guess the layout, but it might be incorrect.
[swscaler @ 0x89381a0] Warning: data is not aligned! This can lead to a speedloss
vector:/~
overthere:$

thought it had something to do with imagemagick due to libmagikcore so down graded o7o to 666 and same...now 070 is not listed and have 666..seems very familiar. anyway, thought it may confirm something

edit: should mention that I have libmagikcore .so4 but not sure what the ramifications of downgrading to so3 are or where to get it. but would try it
« Last Edit: February 16, 2013, 09:07:41 am by overthere » Logged

Everything Is Relative
Pages: [1]
  Print  
 
Jump to:  

Powered by MySQL Powered by PHP Powered by SMF 1.1.19 | SMF © 2013, Simple Machines Valid XHTML 1.0! Valid CSS!